Изгой-один: Звёздные войны. Истории / Rogue One: A Star Wars Story (Гарет Эдвардс / Gareth Edwards) [2016, США, Фантастика, боевик, приключения, BDRip 1080p]

Архив раздач
 КиноПоиск

Изгой-один: Звёздные войны. Истории / Rogue One: A Star Wars Story (Гарет Эдвардс / Gareth Edwards) [2016, США, Фантастика, боевик, приключения, BDRip 1080p]

Сообщение CObP » 06 апр 2017, 22:15

  • Постеры
  • Скриншоты
Информация о фильме
Название: Изгой-один: Звёздные войны. Истории
Оригинальное название: Rogue One: A Star Wars Story
Год выхода: 2016
Жанр: фантастика, боевик, приключения
Режиссер: Гарет Эдвардс
В ролях: Фелисити Джонс, Диего Луна, Алан Тьюдик, Донни Йен, Цзян Вэнь, Бен Мендельсон, Форест Уитакер, Риз Ахмед, Мадс Миккельсен, Джимми Смитс

О фильме: Сопротивление собирает отряд для выполнения особой миссии — надо выкрасть чертежи самого совершенного и смертоносного оружия Империи. Возглавляет бойцов неуправляемая и бесстрашная Джин Эрсо, у которой в этом самоубийственном задании есть и личные мотивы. Не всем суждено вернуться домой, но герои готовы к этому, ведь на кону судьба Галактики.

Премьера (мир) 10 декабря 2016, ...
Премьера (РФ) 15 декабря 2016, «WDSSPR»




Выпущено: США / Lucasfilm
Продолжительность: 02:13:57
Озвучивание: Дублированное [лицензия]
Примечание: Локализованный видеоряд!
Общее
Уникальный идентификатор : 182174143991698246628274685291230932413 (0x890D76C231C86BFD9F58156089E82DBD)
Формат : Matroska
Версия формата : Version 2
Размер файла : 9,96 Гбайт
Продолжительность : 2 ч. 13 м.
Общий поток : 10,6 Мбит/сек
Название фильма : Rogue.One.2016.BDRip.1080p.(qqss44)
Дата кодирования : UTC 2017-04-06 08:18:05
Программа кодирования : mkvmerge v5.8.0 ('No Sleep / Pillow') built on Sep 2 2012 15:37:04
Библиотека кодирования : libebml v1.2.3 + libmatroska v1.3.0

Видео
Идентификатор : 1
Формат : AVC
Формат/Информация : Advanced Video Codec
Профиль формата : High@L4.1
Параметр CABAC формата : Да
Параметр ReFrames формата : 5 кадров
Идентификатор кодека : V_MPEG4/ISO/AVC
Продолжительность : 2 ч. 13 м.
Битрейт : 10000 Кбит/сек
Ширина : 1920 пикселей
Высота : 804 пикселя
Соотношение сторон : 2,40:1
Режим частоты кадров : Постоянный
Частота кадров : 23,976 (24000/1001) кадра/сек
Цветовое пространство : YUV
Субдискретизация насыщенности : 4:2:0
Битовая глубина : 8 бит
Тип развёртки : Прогрессивная
Бит/(Пиксели*Кадры) : 0.270
Размер потока : 9,16 Гбайт (92%)
Заголовок : Rogue.One.2016.BDRip.1080p.(qqss44)
Библиотека кодирования : x264 core 148 r2744kMod b97ae06
Настройки программы : cabac=1 / ref=5 / deblock=1:-3:-3 / analyse=0x3:0x113 / me=umh / subme=11 / psy=1 / fade_compensate=0.00 / psy_rd=1.00:0.00 / mixed_ref=1 / me_range=32 / chroma_me=1 / trellis=2 / 8x8dct=1 / cqm=0 / deadzone=21,11 / fast_pskip=0 / chroma_qp_offset=-2 / threads=12 / lookahead_threads=2 / sliced_threads=0 / nr=0 / decimate=0 / interlaced=0 / bluray_compat=0 / constrained_intra=0 / bframes=9 / b_pyramid=2 / b_adapt=2 / b_bias=0 / direct=3 / weightb=1 / open_gop=0 / weightp=2 / keyint=240 / keyint_min=23 / scenecut=40 / intra_refresh=0 / rc=2pass / mbtree=0 / bitrate=10000 / ratetol=1.0 / qcomp=0.65 / qpmin=0 / qpmax=69 / qpstep=4 / cplxblur=20.0 / qblur=0.5 / ip_ratio=1.40 / pb_ratio=1.30 / aq=3:0.80
Язык : English
Default : Да
Forced : Нет

Аудио
Идентификатор : 2
Формат : AC-3
Формат/Информация : Audio Coding 3
Расширение режима : CM (complete main)
Параметр Endianness формата : Big
Идентификатор кодека : A_AC3
Продолжительность : 2 ч. 13 м.
Вид битрейта : Постоянный
Битрейт : 640 Кбит/сек
Каналы : 6 каналов
Расположение каналов : Front: L C R, Side: L R, LFE
Частота : 48,0 КГц
Частота кадров : 31,250 кадров/сек (1536 spf)
Метод сжатия : С потерями
Размер потока : 613 Мбайт (6%)
Заголовок : DUB | DD5.1 @ 640 kbps
Язык : Russian
Default : Да
Forced : Нет

Текст
Идентификатор : 3
Формат : UTF-8
Идентификатор кодека : S_TEXT/UTF8
Идентификатор кодека/Информация : UTF-8 Plain Text
Заголовок : FULL
Язык : Russian
Default : Нет
Forced : Нет

Меню
00:00:00.000 : en:"He's Come For Us"
00:02:34.653 : en:Unfinished Business
00:07:46.464 : en:Jyn In Prison
00:08:42.812 : en:Ring Of Kafren
00:11:04.621 : en:An Urgent Message
00:12:21.197 : en:Wobani Prison Break
00:13:41.153 : en:Rebel Interrogation
00:17:19.913 : en:Mission Departure
00:20:09.540 : en:Saw Gerrera
00:21:54.770 : en:Krennic And Tarkin
00:23:47.092 : en:Jyn's Dream
00:24:31.385 : en:Scouting Jedha City
00:26:53.443 : en:Bor Gullet
00:27:46.623 : en:Guardians Of The Whills
00:30:37.292 : en:Holy City Ambush
00:33:53.405 : en:"Let Them Pass"
00:37:11.269 : en:Saw's Catacombs
00:42:30.088 : en:Galen's Message
00:47:16.123 : en:Jedha Escape
00:51:04.143 : en:Tarkin Commands
00:52:23.722 : en:Race To Eadu
00:55:53.266 : en:Eadu Crash
00:59:48.251 : en:Scouting Eadu
01:02:07.806 : en:Krennic And Galen
01:05:25.503 : en:Attack On Eadu
01:10:24.094 : en:Eadu Aftermath
01:12:49.530 : en:Mustafar
01:16:28.457 : en:Jyn Before The Council
01:19:04.322 : en:"May The Force Be With Us"
01:21:55.159 : en:Rogue One Launches
01:23:25.667 : en:Scarif Gate
01:25:58.985 : en:10 Men Like 100
01:27:34.957 : en:Imperial Inspection
01:29:57.307 : en:Ground Forces
01:31:53.841 : en:The Battle Begins
01:34:18.735 : en:Scrambling The Rebel Fleet
01:36:07.511 : en:Sowing Confusion
01:37:48.237 : en:Rebel Reinforcements
01:40:27.604 : en:Beach Battle
01:42:44.073 : en:Master Switch
01:45:26.778 : en:Stardust
01:47:55.010 : en:Data Vault
01:50:31.416 : en:Sacrifices
01:53:28.885 : en:"We Have The Plans"
01:55:46.271 : en:Final Confrontation
01:59:23.447 : en:Transmission Received
02:01:11.346 : en:Fire When Ready
02:03:15.595 : en:Hope
02:05:42.117 : en:End Credits

Файл
Формат: MKV (x264)
Качество: BDRip 1080p
Видео: 10.0 Mb/s, 1920x804
Звук: AC3, 640 kb/s (6 ch)
Субтитры: Русские
Размер: 9.96 GB
Аватара пользователя
CObP
Хранитель
 
Раздал: 272.12 ТБ
Скачал: 0 байт
Ратио: Seed.
Сообщения: 2094

Карма: 1102
Зарегистрирован: 11 дек 2010, 10:56
  • Торрент
Автор: CObP Хэш: ---
Добавлен: 06 апр 2017, 22:15 Приватный: Нет (DHT включён)
Статус: Запрещён
Размер: 9.96 ГБ (10 691 426 547 байт)
Изменил: SFH (22 май 2017, 10:27)
Скачали: 8 (Раздающих: 100%)
Причина:
---
Здоровье: 100%
Сидеров: 13 Личеров: 2
Скорость раздачи: 0 байт/сек Скорость скачивания: 0 байт/сек
Последний сидер: 1 год 5 месяцев 28 дней 8 часов 31 минуту 10 секунд назад Последний личер: 1 год 5 месяцев 29 дней 12 часов 15 минут 40 секунд назад
Для скачивания торрента необходимо зарегистрироваться или войти на трекер.

Вернуться в Подвальчик

Кто сейчас на конференции

Сейчас эту тему просматривают: нет зарегистрированных пользователей и гости: 1

cron
Ресурс не предоставляет электронные версии произведений, а занимается лишь коллекционированием и каталогизацией ссылок, присылаемых и публикуемых на форуме нашими читателями. Если вы являетесь правообладателем какого-либо представленного материала и не желаете чтобы ссылка на него находилась в нашем каталоге, свяжитесь с нами и мы незамедлительно удалим её. Файлы для обмена на трекере предоставлены пользователями сайта, и администрация не несёт ответственности за их содержание. Просьба не заливать файлы, защищенные авторскими правами, а также файлы нелегального содержания!