Лига справедливости 3D / Justice League 3D (Зак Снайдер / Zack Snyder) [2017, США, Великобритания, Канада, фантастика, фэнтези, боевик, приключения, BDRip 1080p] IMAX

 КиноПоиск

Лига справедливости 3D / Justice League 3D (Зак Снайдер / Zack Snyder) [2017, США, Великобритания, Канада, фантастика, фэнтези, боевик, приключения, BDRip 1080p] IMAX

Сообщение CObP » 11 мар 2018, 12:36

  • Постеры
  • Скриншоты
Информация о фильме
Название: Лига справедливости
Оригинальное название: Justice League
Год выхода: 2017
Жанр: фантастика, фэнтези, боевик, приключения
Режиссер: Зак Снайдер
В ролях: Бен Аффлек, Генри Кавилл, Эми Адамс, Галь Гадот, Джейсон Момоа, Эзра Миллер, Рэй Фишер, Джереми Айронс, Дайан Лэйн, Конни Нильсен

О фильме: Брюс Уэйн, вдохновленный самопожертвованием Супермена, вновь обретает веру в человечество. Он заручается поддержкой новой союзницы, Дианы Принс, чтобы сразиться с еще более могущественным противником. Бэтмен и Чудо-Женщина быстро набирают команду сверхлюдей для борьбы с пробудившейся угрозой. Но несмотря на уникальный состав отряда супергероев — Бэтмен, Чудо-Женщина, Аквамэн, Киборг и Флэш, — быть может, спасать планету от вторжения катастрофических масштабов уже слишком поздно.

Премьера (мир) 13 ноября 2017, ...
Премьера (РФ) 16 ноября 2017, «Каро-Премьер»




Выпущено: США / Worner Bros, DC
Продолжительность: 02:00:02
Озвучивание: Дублированное [лицензия]
General
Unique ID : 252415266716802923318297831379888500784 (0xBDE5697CB37CE69DFDD1A0CB3C4FF030)
Complete name : D:JusticeLeague(2017)3D-halfOU(Ash61)JusticeLeague(2017)3D-halfOU(Ash61).mkv
Format : Matroska
Format version : Version 4 / Version 2
File size : 15.4 GiB
Duration : 2h 0mn
Overall bit rate : 18.3 Mbps
Movie name : Лига справедливости / Justice League (2017) in 3D
Encoded date : UTC 2018-03-07 09:31:54
Writing application : mkvmerge v19.0.0 ('Brave Captain') 64-bit
Writing library : libebml v1.3.5 + libmatroska v1.4.8

Video
ID : 1
Format : AVC
Format/Info : Advanced Video Codec
Format profile : High@L4.1
Format settings, CABAC : Yes
Format settings, ReFrames : 4 frames
Codec ID : V_MPEG4/ISO/AVC
Duration : 2h 0mn
Bit rate : 17.0 Mbps
Width : 1 920 pixels
Height : 1 080 pixels
Display aspect ratio : 16:9
Frame rate mode : Constant
Frame rate : 23.976 (24000/1001) fps
Color space : YUV
Chroma subsampling : 4:2:0
Bit depth : 8 bits
Scan type : Progressive
Bits/(Pixel*Frame) : 0.342
Stream size : 14.3 GiB (93%)
Title : BDRip by Ash61
Writing library : x264 core 146 r2538 121396c
Encoding settings : cabac=1 / ref=4 / deblock=1:-3:-3 / analyse=0x3:0x113 / me=umh / subme=10 / psy=1 / psy_rd=1.00:0.00 / mixed_ref=1 / me_range=32 / chroma_me=1 / trellis=2 / 8x8dct=1 / cqm=0 / deadzone=21,11 / fast_pskip=0 / chroma_qp_offset=-2 / threads=12 / lookahead_threads=2 / sliced_threads=0 / nr=0 / decimate=0 / interlaced=0 / bluray_compat=0 / constrained_intra=0 / bframes=9 / b_pyramid=2 / b_adapt=2 / b_bias=0 / direct=3 / weightb=1 / open_gop=0 / weightp=2 / keyint=250 / keyint_min=23 / scenecut=40 / intra_refresh=0 / rc_lookahead=60 / rc=2pass / mbtree=0 / bitrate=17000 / ratetol=1.0 / qcomp=0.70 / qpmin=0 / qpmax=69 / qpstep=4 / cplxblur=20.0 / qblur=0.5 / vbv_maxrate=40000 / vbv_bufsize=30000 / nal_hrd=none / filler=0 / frame-packing=4 / ip_ratio=1.40 / pb_ratio=1.30 / aq=1:0.70
Language : English
Default : Yes
Forced : No

Audio #1
ID : 2
Format : AC-3
Format/Info : Audio Coding 3
Mode extension : CM (complete main)
Format settings, Endianness : Big
Codec ID : A_AC3
Duration : 2h 0mn
Bit rate mode : Constant
Bit rate : 448 Kbps
Channel(s) : 6 channels
Channel positions : Front: L C R, Side: L R, LFE
Sampling rate : 48.0 KHz
Frame rate : 31.250 fps (1536 spf)
Compression mode : Lossy
Stream size : 385 MiB (2%)
Title : Дубляж - BD 3D EUR
Language : Russian
Default : Yes
Forced : No

Audio #2
ID : 3
Format : AC-3
Format/Info : Audio Coding 3
Mode extension : CM (complete main)
Format settings, Endianness : Big
Codec ID : A_AC3
Duration : 2h 0mn
Bit rate mode : Constant
Bit rate : 224 Kbps
Channel(s) : 2 channels
Channel positions : Front: L R
Sampling rate : 48.0 KHz
Frame rate : 31.250 fps (1536 spf)
Compression mode : Lossy
Stream size : 192 MiB (1%)
Title : Дубляж - iTunes
Language : Ukrainian
Default : No
Forced : No

Audio #3
ID : 4
Format : AC-3
Format/Info : Audio Coding 3
Mode extension : CM (complete main)
Format settings, Endianness : Big
Codec ID : A_AC3
Duration : 2h 0mn
Bit rate mode : Constant
Bit rate : 640 Kbps
Channel(s) : 6 channels
Channel positions : Front: L C R, Side: L R, LFE
Sampling rate : 48.0 KHz
Frame rate : 31.250 fps (1536 spf)
Compression mode : Lossy
Stream size : 550 MiB (3%)
Title : Original - BD 3D EUR
Language : English
Default : No
Forced : No

Text #1
ID : 5
Format : UTF-8
Codec ID : S_TEXT/UTF8
Codec ID/Info : UTF-8 Plain Text
Duration : 1h 57mn
Bit rate : 1 bps
Count of elements : 33
Stream size : 1.16 KiB (0%)
Title : Форсированные - BD 3D EUR (расширенные)
Language : Russian
Default : Yes
Forced : No

Text #2
ID : 6
Format : UTF-8
Codec ID : S_TEXT/UTF8
Codec ID/Info : UTF-8 Plain Text
Duration : 1h 59mn
Bit rate : 57 bps
Count of elements : 1025
Stream size : 49.8 KiB (0%)
Title : Полные - BD 3D EUR
Language : Russian
Default : No
Forced : No

Text #3
ID : 7
Format : UTF-8
Codec ID : S_TEXT/UTF8
Codec ID/Info : UTF-8 Plain Text
Duration : 1h 55mn
Bit rate : 1 bps
Count of elements : 32
Stream size : 1.32 KiB (0%)
Title : Форсированные (расширенные)
Language : Ukrainian
Default : No
Forced : No

Text #4
ID : 8
Format : UTF-8
Codec ID : S_TEXT/UTF8
Codec ID/Info : UTF-8 Plain Text
Duration : 1h 58mn
Bit rate : 42 bps
Count of elements : 1233
Stream size : 36.5 KiB (0%)
Title : Full
Language : English
Default : No
Forced : No

Text #5
ID : 9
Format : UTF-8
Codec ID : S_TEXT/UTF8
Codec ID/Info : UTF-8 Plain Text
Duration : 1h 59mn
Bit rate : 48 bps
Count of elements : 1507
Stream size : 42.7 KiB (0%)
Title : SDH - BD 3D EUR
Language : English
Default : No
Forced : No

Menu
00:00:00.000 : :1
00:10:56.155 : :2
00:19:16.489 : :3
00:30:41.673 : :4
00:40:19.667 : :5
00:49:56.535 : :6
01:01:26.892 : :7
01:09:41.552 : :8
01:19:18.587 : :9
01:30:34.512 : :10
01:40:33.569 : :11
01:48:43.058 : :12

Файл
Формат: MKV (x264)
Качество: BDRip 1080p
Формат 3D: Half OverUnder / Вертикальная анаморфная стереопара
Видео: 17000 kb/s, 1920х1080
Звук: Russian: AC3, 448 kb/s (6 ch) / Ukrainian: AC3, 224 kb/s (2 ch) / English: AC3, 640 kb/s (6 ch)
Субтитры: Russian, Ukrainian, English
Размер: 15.35 GB
Аватара пользователя
CObP
Хранитель
 
Раздал: 253.74 ТБ
Скачал: 0 байт
Ратио: Seed.
Сообщения: 2007

Карма: 1001
Зарегистрирован: 11 дек 2010, 10:56
  • Торрент
Автор: CObP Хэш: ---
Добавлен: 11 мар 2018, 12:36 Приватный: Нет (DHT включён)
Статус: Vip аплоад
Размер: 15.35 ГБ (16 487 144 271 байт)
Изменил:
---
Скачали: 5 (Раздающих: 100%)
Причина:
---
Здоровье: 100%
Сидеров: 82 Личеров: 0
Скорость раздачи: 43.34 КБ/сек Скорость скачивания: 0 байт/сек
Последний сидер: 23 минуты 2 секунды назад Последний личер: 2 месяца 10 дней 2 часа 36 минут 43 секунды назад
Для скачивания торрента необходимо зарегистрироваться или войти на трекер.

Вернуться в Кинофильмы 3D

Кто сейчас на конференции

Сейчас эту тему просматривают: нет зарегистрированных пользователей и гости: 1

Ресурс не предоставляет электронные версии произведений, а занимается лишь коллекционированием и каталогизацией ссылок, присылаемых и публикуемых на форуме нашими читателями. Если вы являетесь правообладателем какого-либо представленного материала и не желаете чтобы ссылка на него находилась в нашем каталоге, свяжитесь с нами и мы незамедлительно удалим её. Файлы для обмена на трекере предоставлены пользователями сайта, и администрация не несёт ответственности за их содержание. Просьба не заливать файлы, защищенные авторскими правами, а также файлы нелегального содержания!
cron